#TITLE:Akkan Berry Berry;
#SUBTITLE:- Ichigo Mashimaro OVA Opening;
#ARTIST:Ichigo Girls;
#TITLETRANSLIT:;
#SUBTITLETRANSLIT:;
#ARTISTTRANSLIT:;
#CREDIT:Asahina-san;
#BANNER:videobanner.avi;
#BACKGROUND:background 1.png;
#LYRICSPATH:Ichigo Mashimaro.lrc;
#CDTITLE:Asahina-San.png;
#MUSIC:Akkan Berry Berry.mp3;
#OFFSET:0.000;
#SAMPLESTART:32.614;
#SAMPLELENGTH:29.240;
#SELECTABLE:YES;
#BPMS:0.000=163.040;
#STOPS:;
#BGCHANGES:1.000=nosound.avi=1.000=1=0=0,
263.000=background 1.png=1.000=1=0=0,
99999=-nosongbg-=1.000=0=0=0 // don't automatically add -songbackground-
;
// cache tags:
#FIRSTBEAT:1.000;
#LASTBEAT:267.500;
#SONGFILENAME:songs/Otaku's Dream 3rd Anime Mix/[Asahina-san] Akkan Berry Berry - Ichigo Mashimaro OVA OP/Ichigo Mashimaro.sm;
#HASMUSIC:1;
#HASBANNER:1;
#MUSICLENGTH:100.160;
// end cache tags

//---------------dance-single - ----------------
#NOTES:
     dance-single:
     :
     Challenge:
     10:
     1.000,1.000,1.000,1.000,0.050,369.000,216.000,135.000,0.000,0.000:
0000
2200
0000
0000
,
0000
0000
0000
0000
0300
0000
0001
0100
,
0010
0000
0000
0000
0000
0000
0000
0000
0200
0000
0000
0000
0000
0000
0000
0000
0000
0000
0000
0000
0000
0000
0000
3300
0002
0000
0000
0000
0000
0000
0000
0000
0000
0000
0000
0000
0000
0000
0000
0000
0003
0000
0000
0000
0000
0000
0000
0000
1100
0000
0000
0000
0000
0000
0000
0000
0110
0000
0000
0000
0000
0000
0000
0000
,
0101
0012
0000
2000
0000
3003
0110
1010
,
0101
0000
0000
0000
0000
0000
0000
0000
2200
0000
0000
0000
0000
0000
0000
0000
0000
0000
0000
0000
0000
0000
0000
0000
0000
0000
0000
0000
0000
0000
0000
3300
0022
0000
0000
0000
0000
0000
0000
0000
0000
0000
0000
0000
0000
0000
0033
0000
2200
0000
0000
0000
0000
0000
0000
0000
0000
0000
0000
0000
0000
0000
3300
0000
,
0012
0200
0000
0000
0000
0303
0110
1010
,
0101
2100
0000
0020
0000
3030
0110
1001
,
1010
0120
0000
1030
0001
0210
0000
0000
,
0300
0000
0000
0000
0011
0000
0000
0000
0011
0000
0000
0000
0000
0110
0000
0000
0110
0000
0000
0000
1100
0000
0000
0000
1100
0000
0000
0000
0000
0110
0000
0000
,
0110
0000
0000
0000
0000
0000
0000
0000
0010
0000
0000
0000
0000
0000
0000
0000
0100
0000
0000
0000
0000
0000
0000
0000
0010
0000
0000
0000
0000
0000
0000
0000
0200
0000
0000
0000
0000
0000
0000
0000
0300
0000
0000
0000
0000
0000
0000
0000
0022
0000
0000
0000
0000
0000
0000
0033
1000
0000
0000
0000
0000
0000
0000
0000
,
0011
0100
1010
0100
0011
1000
0110
0100
,
1100
0100
0110
0010
0011
0100
1100
0100
,
0011
1000
0102
0010
0100
0013
1000
0100
,
0010
0001
0100
0010
0210
0001
1300
0010
,
1000
0000
0010
0000
1200
0000
0001
0300
1010
0000
0010
0000
1001
0000
0001
0000
,
1010
0010
1100
0001
1100
0010
0110
0001
,
1000
0010
1100
0110
0011
0110
1100
0110
,
0011
2100
0000
0100
3010
0000
0101
0000
,
0101
0000
0000
2200
3300
0001
0100
0010
,
0100
0012
0000
1003
0010
0210
0010
0001
,
1000
0002
0303
0010
0000
0110
1001
2200
,
3300
0000
0000
0000
0000
0000
0210
0000
0000
0000
0000
0000
0000
0000
0000
0000
0000
0000
0301
0000
0000
0000
0000
0000
2100
0000
0000
0000
0000
0000
0200
0000
0000
0000
0000
0300
0010
0000
0000
0000
0000
0000
0001
0000
0000
0000
0000
0000
,
3010
0000
0100
0000
0202
0303
0000
0000
2200
3300
0000
0000
0220
0330
0000
0000
,
0202
0303
0220
0000
0330
0000
0202
0000
0000
0000
0303
0000
1010
0000
0101
0000
,
0220
0330
0000
0000
2200
0000
0000
0000
3300
0000
0110
0000
0202
0000
0000
0000
,
0303
1010
0000
0110
0000
0101
0102
0000
,
2000
0000
3003
1010
0001
0100
0010
1000
,
0001
1100
0000
1100
0101
2020
0000
0000
,
0000
3030
0000
0101
1010
1010
0110
1100
,
0101
0220
0330
1001
0110
0202
0000
0000
,
0303
0000
0010
0100
1000
0000
0000
0000
0101
0000
0000
0000
0110
0000
0000
0000
,
1001
0100
1010
0000
0000
0000
1100
0000
0000
0000
0110
0000
0110
0000
0101
0000
,
0110
0000
2002
0000
3003
0110
0022
0033
,
0000
1010
0000
0101
0010
0100
0001
1000
,
0010
0000
2000
0000
0200
0000
0000
0000
3300
0000
0110
0000
0202
0303
0000
0000
,
0202
0303
0000
0000
2020
0000
0000
0000
3030
0000
0220
0330
0220
0330
0000
0000
,
0101
0000
0000
0000
2020
0000
0000
0000
3030
0000
2200
3300
0220
0330
0000
0000
,
0101
0000
1020
1030
0100
0022
0000
0033
,
2200
3300
0110
0011
1001
1010
0220
0330
,
2100
0002
3003
0010
0100
2000
3000
0100
,
0020
0030
2100
0000
0001
0000
0010
0000
0100
0000
0001
0000
0010
0000
0010
0000
,
3100
0000
0202
0303
0202
0303
0202
0303
0202
0303
0000
0000
0110
0000
1100
0000
,
0101
0210
0000
0020
0330
0000
0101
0110
,
1010
0201
0000
0002
0000
0303
0010
1000
,
0020
0000
0000
0000
0230
0000
0000
0000
0000
0000
0000
0000
0000
0000
0000
0300
1002
0000
0000
0000
0000
0000
0000
0000
1003
0000
0000
0000
0000
0000
0000
0000
,
0010
0000
0000
0000
0000
0000
0000
0000
0210
0000
0000
0000
0000
0000
0000
0000
0000
0000
0000
0000
0000
0000
0000
0000
0000
0000
0000
0000
0000
0000
0000
0000
0000
0000
0000
0000
0000
0000
0000
0000
0000
0000
0000
0000
0000
0300
0000
0000
0011
0000
0000
0000
0000
0000
0000
0000
1100
0000
0000
0000
0000
0000
0000
0000
,
0110
0110
0000
0202
0000
0303
1010
0101
,
0110
0110
0000
1001
0000
2200
0000
0000
,
3300
0000
0000
0000
0101
0000
0000
0000
0101
0000
0000
0000
0110
0000
0000
0110
0000
0000
0000
0000
1010
0000
0000
0000
1010
0000
0000
0000
0110
0000
0000
0110
,
0000
0101
0010
0100
0022
0033
0010
0100
,
0001
2010
0000
0020
0000
3030
0001
0100
,
1002
0200
0300
0020
0000
0033
0010
1000
,
1002
0200
0000
0303
0020
0000
2030
0000
,
3010
0200
0000
0301
0100
0220
0000
0000
,
0330
0000
0000
0000
1010
0010
0110
0010
,
0110
0010
0202
0000
0303
1010
0000
0101
,
0010
0000
2100
0000
3000
0000
0110
0000
0102
0000
0010
0000
0100
1000
0100
0010
,
0100
1000
0100
1000
0000
0000
0003
0000
1010
0000
0110
0000
0101
0000
1100
0000
,
0110
0000
1001
0010
0101
0001
0101
0000
,
0010
1010
0000
0110
0000
0110
0101
0001
,
1001
0000
0110
0010
1010
0010
0110
0000
,
0001
0101
0000
0101
0000
1010
1010
0010
,
0110
0000
0101
0001
0101
0001
1010
0000
,
0010
0110
0000
1100
0000
0110
0010
1010
,
0101
0000
1010
0010
1100
0010
0110
0000
,
0001
1010
0000
0011
0000
1100
2200
0000
,
0000
3300
0000
0000
;

//---------------dance-single - ----------------
#NOTES:
     dance-single:
     :
     Hard:
     8:
     0.489,0.601,0.230,0.339,0.000,286.000,23.000,34.000,0.000,0.000:
0000
0120
0000
0000
,
0000
0000
0000
0000
0030
0000
1000
0100
,
1000
0010
0000
0210
0300
0000
0100
0010
,
0100
0010
0000
0120
0030
0000
1000
0010
,
1000
0020
0000
0000
0130
0000
1100
0000
,
0100
2000
0000
0000
0000
3000
0001
0000
,
0100
0010
0000
0200
0000
0300
0110
0000
,
1100
0101
0110
0220
,
0330
0100
0010
0000
0000
0010
0100
0000
,
0000
0100
0010
0100
0010
0000
0010
0000
,
1000
0000
0010
0100
0010
0100
0110
0000
,
0110
0000
1000
0100
1000
0100
1100
0000
,
1100
0000
0001
0100
0001
0100
0101
0000
,
0101
0000
0100
0010
0100
0010
0110
0000
,
0110
0000
1000
0100
1000
0100
1100
0000
,
1100
0000
0010
0001
0010
0001
0011
0000
,
0011
0000
0010
0100
0010
0100
0000
0010
,
1000
0020
0000
0000
0030
0000
0110
0000
,
0120
0030
0000
0010
0000
0100
0010
1000
,
0100
0020
0000
0130
0001
0200
0000
0000
,
0000
0300
0000
0010
0000
0100
0010
0200
,
0000
0320
0000
0130
0010
0200
0000
0300
,
0000
0010
1000
0100
,
1000
0100
0000
1000
0000
0000
0100
0010
,
0200
0000
0302
0000
0003
0010
0001
0000
,
0000
0010
0000
0100
0000
0010
0100
0000
,
0000
0000
0000
0010
1000
0010
0100
0010
,
0100
0010
0000
1000
0100
2000
0000
0000
,
0000
0000
3000
0010
0100
0001
0100
0010
,
1000
0010
0000
0100
0001
0200
0000
0000
,
0300
0010
1000
0010
,
0100
0001
0000
0100
0000
0000
0010
1000
,
0010
0000
0100
0000
0000
0010
0200
0000
,
0000
0000
0300
0001
1000
0010
0100
0001
,
0100
0000
0001
0000
0000
0001
0001
0000
,
0010
0000
0100
0000
0000
0100
0100
0000
,
1000
0000
0010
0000
0000
0010
0010
0000
,
0100
0001
1000
0010
,
0100
0000
0001
0000
0000
0001
0001
0000
,
0100
0000
1000
0000
0000
0010
0100
0000
,
0001
0100
0010
1000
,
0000
0100
0001
0100
0010
0000
0100
0010
,
0100
0020
0000
1030
0000
0000
0010
1000
,
0010
0200
0000
0301
0000
0000
0010
1000
,
0010
0100
0000
0000
0001
0000
1000
0000
,
0010
0200
0000
0000
0300
0000
0010
0100
,
0001
1000
0000
0010
0000
0000
0100
0001
,
0100
0010
0000
1000
0000
0200
0000
0000
,
0300
0010
0100
0000
0000
0001
1000
0000
,
0000
0010
0100
0001
1000
0000
0010
0100
,
0010
0100
0000
0020
0030
0000
0100
0010
,
1000
0010
0000
0100
0000
0000
0001
0100
,
0010
2000
3000
0000
0100
0000
0020
0000
,
0030
0001
0000
0100
0010
2000
0000
0000
,
0000
0000
3000
0000
0002
0003
0020
0030
,
0200
0300
2000
3000
0000
0010
0000
0100
,
0001
0100
0000
0010
2000
0000
0000
0000
,
0000
0000
0000
3000
0010
0100
0001
0100
,
0010
1000
0010
0000
0010
0000
0010
0000
,
0000
0100
0000
0100
0000
0100
0100
0000
,
0000
0001
0001
0001
,
0000
0010
0000
0010
0000
0010
0010
0000
,
0000
1000
1000
1000
,
0000
0001
0000
0001
0000
0001
0001
0000
,
0000
0010
0100
0001
,
0000
1000
0000
0010
0000
0100
0002
0000
,
0000
0000
0000
0000
0000
0000
0000
0003
;

//---------------dance-single - ----------------
#NOTES:
     dance-single:
     :
     Medium:
     6:
     0.277,0.361,0.020,0.040,0.000,188.000,2.000,4.000,0.000,0.000:
0000
0000
0000
0000
,
0000
0000
0000
0000
,
0000
0000
0100
0000
,
0001
0000
0100
0000
,
0010
0000
1000
0000
,
0100
0000
0010
0000
,
0001
0000
0010
0000
,
0100
0000
0010
0000
,
0000
0100
0000
0010
,
0000
0100
0001
0000
,
0000
1000
0010
0100
,
0001
1000
0100
1000
,
0100
0001
0010
0001
,
0010
1000
0001
1000
,
0001
0010
0100
0010
,
0100
1000
0100
0010
,
0001
0010
0100
1000
,
0100
0001
0010
0101
,
0101
0000
0010
0000
,
1000
0000
0010
0000
,
0100
0000
0001
0000
,
1000
0000
0010
0000
,
0100
0001
1000
0010
,
0100
0001
0000
1000
,
0000
0010
0000
0200
,
0300
0001
0000
1000
0000
0010
0100
0000
,
0002
0003
0010
0000
,
1000
0000
0100
0000
,
0010
0000
0001
0000
,
0001
0000
0010
0000
,
1000
0010
1000
0001
,
1000
0001
1000
0001
,
1000
0020
0000
0200
,
0000
0000
0000
0000
,
0330
0001
0000
0100
,
0000
0010
0000
0010
,
0100
0001
0000
0001
,
1000
0010
0000
0010
,
0100
0001
0000
0001
,
1000
0010
0000
0010
,
0100
0001
1000
0010
,
0100
0001
0010
0001
,
1000
1000
0001
1000
,
0010
0100
0001
0100
,
0010
1000
0010
0100
,
0001
0010
1000
0100
,
0001
0010
1000
0010
,
0100
0001
0100
0010
,
0001
0001
0000
1000
,
0000
0010
0001
0000
,
0000
0010
0001
0000
,
0100
0000
1000
0000
,
0100
0000
0010
0000
,
0001
0000
0010
0000
,
0100
0000
1000
0010
,
0001
0010
1000
0001
,
0010
0100
1000
0100
,
0010
1000
0001
0100
,
0010
1000
1000
1000
,
0000
0001
0001
0001
,
0000
1000
1000
1000
,
0000
0001
0001
0001
,
0000
0010
0010
0010
,
0000
0100
0100
0100
,
0000
0001
1000
0001
,
0000
1000
0000
0010
0000
0100
0001
0000
;

//---------------dance-single - ----------------
#NOTES:
     dance-single:
     :
     Easy:
     4:
     0.175,0.232,0.000,0.030,0.000,120.000,0.000,3.000,0.000,0.000:
0000
0000
0000
0000
,
0000
0000
0000
0000
,
0000
0000
1000
0000
,
0000
0000
0010
0000
,
0000
0000
0100
0000
,
0000
0000
0001
0000
,
0000
0000
1000
0000
,
0000
0000
0100
0000
,
0000
0000
0000
0000
,
0000
0000
0000
0000
,
0000
0001
0000
1000
,
0000
0010
0100
0001
,
0000
1000
0000
0010
,
0000
0001
0010
1000
,
0000
0010
0000
1000
,
0000
0001
1000
0001
,
0000
0010
0100
0001
,
0000
1000
0010
0100
,
0100
0000
0000
0000
,
0000
0000
1000
0000
,
0001
0000
0010
0000
,
0001
0000
0010
0000
,
1000
0000
0001
0000
,
0100
0000
0001
0000
,
1000
0000
0010
0000
,
0000
0001
1000
0001
,
0000
0000
0000
0000
,
0010
0000
0001
0000
,
1000
0000
0001
0000
,
1000
0000
0010
0000
,
1000
0000
0001
0000
,
0100
0000
0010
0000
,
0100
0000
0100
0000
,
0010
0000
0001
1000
,
0001
1000
0000
0000
,
0010
0000
0000
0000
,
0001
0000
0000
0000
,
1000
0000
0000
0000
,
0100
0000
0000
0000
,
0010
0000
0000
0000
,
1000
0000
0000
0000
,
0000
0001
1000
0000
,
0000
0010
0000
0100
,
0000
0001
0000
1000
,
0000
0100
0010
0001
,
0010
0200
0000
0000
,
0300
0000
0001
0000
,
1000
0000
0001
0000
,
0000
0010
0000
0000
,
0000
0100
0000
0000
,
0000
1000
0000
0000
,
0000
0001
0000
0000
,
0000
0100
0010
1000
,
0000
1000
0010
0100
,
0000
0001
0000
1000
,
0000
0010
0000
0100
,
0001
1000
0010
0100
,
0001
0002
0000
0000
,
0003
0010
0000
0100
,
0000
1000
0100
0001
,
0000
0010
0000
1000
,
0000
0001
0010
1000
,
0000
0100
0000
0010
,
0000
0010
0100
0100
,
0010
0001
0000
1000
,
0000
0010
0100
0002
,
0000
0000
0003
0000
;

//---------------dance-single - Copied from----------------
#NOTES:
     dance-single:
     Copied from:
     Beginner:
     2:
     0.126,0.197,0.000,0.000,0.000,88.000,0.000,0.000,0.000,0.000:
0000
0000
0000
0000
,
0000
0000
0000
0000
,
0000
1000
0000
0000
,
0000
0100
0000
0000
,
0000
1000
0000
0000
,
0000
0001
0000
0000
,
0000
0010
0000
0000
,
0000
0001
0000
0000
,
0000
0010
0000
0000
,
0000
0100
0000
0010
,
0000
0100
0000
0000
,
0000
0010
0000
0000
,
0000
0100
0000
0000
,
0000
0100
0000
0001
,
0000
0100
0000
0000
,
0000
0010
0000
0000
,
0000
1000
0000
0010
,
0000
0100
0000
0010
,
0000
0000
0000
0000
,
0000
0000
0000
0000
,
0000
0000
1000
0000
,
0000
0000
0001
0000
,
0000
0000
1000
0000
,
0000
0000
0001
0000
,
0000
0000
0010
0000
,
0000
0001
0100
0001
,
0000
0000
1000
0000
,
0000
0000
0100
0000
,
0000
0000
1000
0000
,
0000
0000
0001
0000
,
0000
0000
1000
0000
,
0000
0000
0001
0000
,
0000
0000
1000
0000
,
0000
0000
0010
1000
,
0010
0000
0000
0000
,
0100
0000
0000
0000
,
0010
0000
0000
0000
,
0100
0000
0000
0000
,
0010
0000
0000
0000
,
0100
0000
0000
0000
,
0010
0000
0000
0000
,
0000
0100
0010
0000
,
0000
0000
1000
0000
,
0001
0000
1000
0000
,
0001
0000
1000
0000
,
0001
0000
0001
0000
,
1000
0000
0001
0000
,
1000
0000
0010
0000
,
1000
0001
0000
1000
,
0000
0010
0000
0100
,
0000
0000
0001
0000
,
1000
0000
0001
0000
,
1000
0000
0010
0000
,
0100
0000
0001
0000
,
1000
0000
0001
1000
,
0001
1000
0000
0010
,
0000
0100
0000
0001
,
1000
0001
0000
0000
,
0000
0100
0000
0000
,
0000
0010
0000
0000
,
0000
1000
0000
0000
,
0000
0001
0000
0000
,
0000
0100
0000
0000
,
0000
0010
0000
0000
,
0000
1000
0000
0000
,
0000
0100
0000
0001
;
